logo

Most popular

Chat femmes à la recherche pour le sexe Rencontres femmes medellin

À Se rencontrer est un site internet à destination des célibataires désireux de faire des rencontres en ligne. Linscription est gratuite et rapide, seules quelques Pour la énième fois, ce forum nest pas un site de rencontre.Faire une rencontre amoureuse est possible sur notre site.


Read more

Contacts femmes tarragone Place lubertine

Nous sommes partis la rencontre d une les relations esporadicas avec les femmes de leon Rencontre de baise libertine de France assez cochonne. Rencontre dans les rues de Lyon, Mylne n a aucune gne nous avouer, en pleine rue, rver de se.


Read more

Top news

Contacts sexe las palmas Jean femme pas " width="85" alt="Contacts sexe las palmas Jean femme pas cher" />
Лас Пальмас: отзывы и впечатления авторов блога. Наверное, в жизни каждого человека есть такие места и такие путешествия, которые вспоминаются с особым трепетом. Такие воспоминания стоят дороже всего.Женская туалетная вода Lancome La Vie Est Belle edp 75ml. Купить. -50Скидка. Женская туалетная вода Lacoste Pour Femme...
Read more
Nina 10 ans à la recherche de " width="85" alt="Nina 10 ans à la recherche de petit ami Baise une femme mature" />
Services en ligne Galaxie Bulletin officiel (B.O.) Admission Post-Bac. Bourse interministérielle de l emploi public Datas ESRI Focus. Crédit Impôt Recherche (C.I.R.) Prime d encadrement doctoral et de recherche. Passerelles public-privé Info-Ressources Open data Statistiques et analyses Téléprocédures.Tous les droits sont résérvés LUniversité de Russie...
Read more

Cubaine femme à la recherche de l'homme


Cubaine femme à la recherche de l'homme

В сердце композиции изысканный и манящий аккорд из лаванды, французского лабаданума и сладковатых нот душистых фруктов. Суховатая тональность ветивера и пачули раскрывается в шлейфе. Смягчают аромат ноты ванили. "Аромат ночи" Yves Saint Laurent La Nuit de lHomme Le Parfum лучше всего подойдет зимой или ранней.
DR5 0.00 dB femme cherche homme mature à salta Rencontre couple paris -6.31 dB 3:48 09-Karmique Afrique. DR5 0.00 dB -5.48 dB 3:25 10-Daydream. DR5 -0.05 dB -6.95 dB 3:34 11-Je recommencerai. DR5 -0.10 dB -8.75 dB 3:56 12-L'exode Number of tracks: 12 Official DR value: DR5 Samplerate: 44100 Hz.
ТУШФФЕКТОМ НАКЛАДНЫХ РЕСНИЦ ВОДОСТОЙКАЯ MASCARA VOLUME EFFET FAUX CILS WATERPROOF. ТУШФФЕКТОМ НАКЛАДНЫХ РЕСНИЦ MASCARA VOLUME EFFET FAUX CILS SHOCKING. ТУШФФЕКТОМ НАКЛАДНЫХ РЕСНИЦ MASCARA VOLUME EFFET FAUX CILS BABY DOLL 5-ЦВЕТНЫЕ ТЕНИ ДЛЯ ВЕК COUTURE PALETTE.
Треклист: 01. De l'Homme à l'Animal (4:32) 02. Par hasard (3:19) 03. Héloïse (3:47) 04. Daddy (3:06) 05. J'ai vaguement ton coeur (4:18) 06. Mr Jeuneutekonépa (4:01) 07. La fin du règne (3:26) 08.
Он украшает и подчеркивает силу личности: раскрывает стиль каждой, отражает отношение к жизни, манере и игру красоты в стиле Yves Saint Laurent. Классицизм в сочетании с экстравагантностью, освещенные огнями Парижа. Уникальный манифест. Мечта остается мечтой и сегодня.
Главная Каталог парфюмерии Yves Saint Laurent YSL La Nuit de LHomme 5.0 (голосов 4) История соблазнения и тайн, рассказанная Yves Saint Laurent в новом вечернем аромате для мужчин La Nuit de LHomme. Построенный на игре контрастов, аромат будет держать Вас в постоянном напряжении, балансируя на грани.
60.80 руб. La Nuit de L'Homme Le Parfum от Yves Saint Laurent это воплощение силы духа, мужественности и альтруизма. Загадочное пряное начало Ив Сент Лоран Ла Нуи Де Ль Хомм Ле Парфюм раскрывается черным перцем, анисом и бергамотом.
Создан аромат La Nuit de L'Homme Le Parfum в 2010 году.
ТЕНИ ДЛЯ ВЕК COUTURE MONO ПОМАДА ДЛЯ ГУБ ROUGE VOLUPTE ПОМАДА ДЛЯ ГУБ ОТ КУТЮР ROUGE PUR COUTURE. ПОМАДА ДЛЯ ГУБ ROUGE VOLUPTE SHINE. ТОНАЛЬНАЯ ОСНОВФФЕКТОМ СИЯНИЯ LE TEINT TOUCHE ECLAT. КИСТОЧКА -ХАЙЛАЙТЕР ДЛЯ СОВЕРШЕННОГО СИЯНИЯ TOUCHE ECLAT.
DR Peak RMS Duration Track. DR6 -0.10 dB -8.72 dB 4:32 01-De l'Homme à l'Animal. DR5 0.00 dB -7.01 dB 3:19 02-Par hasard. DR6 -1.09 dB -9.32 dB 3:47 03-Héloïse. DR6 0.00 dB -7.81 dB 3:06 04-Daddy.


410
Sitemap